osu file format v14

[General]
AudioFilename: Metropolis.mp3
AudioLeadIn: 1500
PreviewTime: 65883
Countdown: 0
SampleSet: Soft
StackLeniency: 0.7
Mode: 0
LetterboxInBreaks: 0
WidescreenStoryboard: 1

[Editor]
Bookmarks: 21946,54860,85374,118683,153603
DistanceSpacing: 1.5
BeatDivisor: 4
GridSize: 4
TimelineZoom: 2.599999

[Metadata]
Title:Metropolis (Original Mix)
TitleUnicode:Metropolis (Original Mix)
Artist:Traktion
ArtistUnicode:Traktion
Creator:Secretpipe
Version:Hard
Source:
Tags:drum and bass dnb galvenize Damnae collab Arphimigon
BeatmapID:812690
BeatmapSetID:359549

[Difficulty]
HPDrainRate:6
CircleSize:4
OverallDifficulty:6
ApproachRate:8
SliderMultiplier:1.5
SliderTickRate:1

[Events]
//Background and Video events
0,0,"fvlf9UE.jpg",0,0
//Break Periods
2,55112,65132
2,77055,81591
//Storyboard Layer 0 (Background)
//Storyboard Layer 1 (Fail)
//Storyboard Layer 2 (Pass)
//Storyboard Layer 3 (Foreground)
//Storyboard Sound Samples

[TimingPoints]
5541,342.857142857143,4,2,1,65,1,0
21998,-133.333333333333,4,2,1,65,0,0
32969,-111.111111111111,4,2,1,50,0,0
41198,-111.111111111111,4,2,1,65,0,0
43426,-111.111111111111,4,2,1,65,0,0
43941,-111.111111111111,4,2,1,65,0,0
65883,-100,4,2,1,65,0,1
76855,-100,4,2,1,65,0,0
82341,-100,4,2,1,65,0,0
87141,-100,4,2,1,65,0,0
87826,-83.3333333333333,4,2,1,65,0,0
109426,-83.3333333333333,4,2,1,65,0,0
109598,-100,4,2,1,65,0,0
109769,-100,4,2,1,65,0,1
110112,-100,4,2,1,50,0,1
130341,-100,4,2,1,90,0,0
131712,-100,4,2,1,50,0,0
153655,-100,4,2,1,75,0,0

[Colours]
Combo1 : 255,94,55
Combo2 : 173,255,95
Combo3 : 17,254,176
Combo4 : 255,88,100

[HitObjects]
108,240,21998,6,0,B|72:210|66:158|91:121,1,112.500004291535,4|0,1:0|3:0,0:0:0:0:
151,88,22512,1,0,1:0:0:0:
164,172,22683,2,0,L|224:184,1,56.2500021457673,8|0,2:0|2:0,0:0:0:0:
304,136,23026,2,0,L|416:120,1,112.500004291535,0|0,1:0|0:0,0:0:0:0:
468,184,23541,6,0,B|469:206|465:227|456:245,1,56.2500021457673,0|0,1:0|0:0,0:0:0:0:
416,304,23883,1,0,1:0:0:0:
384,232,24055,2,0,B|344:251|299:240|273:209,1,112.500004291535,8|0,2:0|3:0,0:0:0:0:
232,156,24569,1,0,1:0:0:0:
140,69,24741,6,0,B|132:124|132:124|156:176,1,112.500004291535,0|0,1:0|3:0,0:0:0:0:
205,244,25255,1,0,1:0:0:0:
121,252,25426,2,0,L|53:244,1,56.2500021457673,8|0,2:0|2:0,0:0:0:0:
152,333,25769,2,0,L|264:317,1,112.500004291535,0|0,1:0|0:0,0:0:0:0:
358,309,26283,5,0,1:0:0:0:
432,236,26455,2,0,B|449:260|447:290|432:312,1,56.2500021457673,0|0,3:0|1:2,0:0:0:0:
304,220,26798,2,0,B|296:174|316:130|351:104,1,112.500004291535,8|0,2:0|1:0,0:0:0:0:
395,56,27312,1,2,2:0:0:0:
280,52,27483,6,0,L|168:44,1,112.500004291535,0|0,1:0|0:0,0:0:0:0:
56,112,27998,1,0,1:0:0:0:
56,112,28169,2,0,L|128:100,1,56.2500021457673,8|0,2:0|2:0,0:0:0:0:
180,160,28512,2,0,B|199:203|174:253|128:264,1,112.500004291535,0|0,1:0|0:0,0:0:0:0:
64,276,29026,5,0,1:0:0:0:
124,332,29198,2,0,B|150:344|180:335|196:312,1,56.2500021457673,0|0,0:0|1:0,0:0:0:0:
272,272,29541,2,0,B|300:241|342:230|379:240,1,112.500004291535,8|0,2:0|3:0,0:0:0:0:
432,296,30055,1,0,1:0:0:0:
404,168,30226,6,0,B|384:88|384:88|388:48,1,112.500004291535,0|0,1:0|0:0,0:0:0:0:
386,58,30741,1,0,1:0:0:0:
312,24,30912,2,0,L|300:104,1,56.2500021457673,8|0,0:0|0:0,0:0:0:0:
240,132,31255,2,0,B|215:142|188:135|172:116,1,56.2500021457673,0|2,1:0|0:0,0:0:0:0:
188,48,31598,5,0,0:0:0:0:
108,72,31769,2,0,B|136:108|139:154|120:191,1,112.500004291535,0|0,1:0|1:0,0:0:0:0:
72,240,32283,2,0,L|12:232,1,56.2500021457673,8|0,0:0|0:0,0:0:0:0:
128,300,32626,1,0,1:0:0:0:
200,264,32798,1,0,0:0:0:0:
256,320,32969,6,0,B|292:285|288:226|248:196,1,134.999995880127,4|0,1:0|3:0,0:0:0:0:
252,199,33483,1,0,1:0:0:0:
332,256,33655,2,0,B|351:277|379:283|404:276,1,67.4999979400635,8|0,2:0|0:0,0:0:0:0:
388,200,33998,2,0,B|355:158|354:103|379:61,1,134.999995880127,0|0,1:0|0:0,0:0:0:0:
440,36,34512,5,0,1:0:0:0:
373,72,34683,2,0,L|280:60,1,67.4999979400635,0|0,0:0|1:0,0:0:0:0:
219,181,35026,2,0,B|212:128|212:128|220:100|220:100|212:48,1,134.999995880127,8|0,2:0|3:0,0:0:0:0:
212,48,35541,1,0,1:0:0:0:
300,176,35712,6,0,B|319:222|303:273|265:299,1,134.999995880127,0|0,1:0|3:0,0:0:0:0:
200,252,36226,1,0,1:0:0:0:
192,336,36398,2,0,L|332:344,1,134.999995880127,8|0,2:0|1:0,0:0:0:0:
460,288,36912,2,0,L|392:296,1,67.4999979400635,2|0,2:0|0:0,0:0:0:0:
416,212,37255,6,0,L|484:204,2,67.4999979400635,0|0|0,1:0|3:0|1:0,0:0:0:0:
320,240,37769,2,0,B|368:223|397:179|400:133,1,134.999995880127,8|0,2:0|1:0,0:0:0:0:
400,60,38283,1,2,0:0:0:0:
400,60,38455,6,0,L|252:84,1,134.999995880127,0|2,1:0|0:0,0:0:0:0:
228,12,38969,1,0,1:0:0:0:
152,41,39141,2,0,B|172:84|224:101|265:81,1,134.999995880127,8|0,2:0|1:0,0:0:0:0:
293,151,39655,6,0,B|251:173|203:171|164:152,1,134.999995880127,2|0,2:0|1:0,0:0:0:0:
104,108,40169,2,0,B|80:87|69:57|72:28,1,67.4999979400635,0|0,3:0|1:0,0:0:0:0:
92,184,40512,2,0,B|110:230|101:280|72:316,1,134.999995880127,8|0,2:0|1:0,0:0:0:0:
74,312,41026,1,0,1:0:0:0:
176,344,41198,6,0,L|320:320,1,134.999995880127,4|0,1:0|0:0,0:0:0:0:
432,280,41712,2,0,L|364:268,1,67.4999979400635,0|8,1:0|0:0,0:0:0:0:
320,204,42055,2,0,B|299:178|299:143|316:117,1,67.4999979400635,0|0,0:0|1:0,0:0:0:0:
459,147,42398,6,0,B|455:110|427:81|391:73|361:84,1,134.999995880127,0|0,0:0|1:0,0:0:0:0:
384,156,42912,1,8,0:0:0:0:
320,204,43083,1,0,1:0:0:0:
252,172,43255,2,2,L|168:160,1,67.4999979400635,8|0,0:0|1:0,0:0:0:0:
148,236,43598,2,0,L|214:245,1,67.4999979400635,0|0,0:0|1:0,0:0:0:0:
112,168,43941,6,0,B|67:132|66:64|109:26,1,134.999995880127,4|0,1:2|3:0,0:0:0:0:
168,96,44455,1,0,1:0:0:0:
168,96,44626,2,0,L|320:80,1,134.999995880127,8|0,2:0|1:0,0:0:0:0:
302,81,45312,5,0,3:0:0:0:
376,120,45483,2,0,B|388:95|386:67|376:44,2,67.4999979400635,0|0|0,1:0|0:0|1:0,0:0:0:0:
308,160,45998,2,0,B|274:197|282:257|324:284,1,134.999995880127,8|0,2:0|3:0,0:0:0:0:
364,216,46512,1,0,1:0:0:0:
318,279,46683,6,0,L|172:300,1,134.999995880127,0|0,1:0|1:0,0:0:0:0:
116,256,47198,1,0,1:0:0:0:
68,197,47369,2,0,B|107:169|162:182|184:224,1,134.999995880127,8|0,2:0|1:0,0:0:0:0:
252,192,47883,2,0,L|328:196,1,67.4999979400635,0|0,0:0|3:0,0:0:0:0:
388,160,48226,6,0,L|400:88,2,67.4999979400635,0|0|0,1:0|3:0|1:0,0:0:0:0:
388,240,48741,2,0,L|320:124,1,134.999995880127,8|0,2:0|1:0,0:0:0:0:
272,64,49255,1,2,0:0:0:0:
196,68,49426,6,0,B|160:89|145:131|157:171|183:195,1,134.999995880127,0|0,1:2|3:0,0:0:0:0:
236,228,49941,1,0,1:0:0:0:
168,260,50112,2,0,B|121:248|75:260|40:288,1,134.999995880127,8|0,2:0|1:0,0:0:0:0:
96,344,50626,6,0,L|236:356,1,134.999995880127,0|0,2:0|1:2,0:0:0:0:
362,305,51141,2,0,L|296:316,1,67.4999979400635,0|0,0:0|1:0,0:0:0:0:
432,348,51483,2,0,B|455:313|449:268|420:237|385:228,1,134.999995880127,8|0,2:0|3:0,0:0:0:0:
324,232,51998,1,0,1:0:0:0:
364,164,52169,2,0,B|390:130|387:82|358:50|321:40,1,134.999995880127,0|0,1:0|3:0,0:0:0:0:
264,48,52683,1,0,1:0:0:0:
208,96,52855,6,0,L|120:84,1,67.4999979400635,8|0,0:0|1:0,0:0:0:0:
68,72,53198,1,8,2:0:0:0:
24,140,53369,2,0,B|5:181|17:227|49:256|87:264,1,134.999995880127,0|0,1:0|1:0,0:0:0:0:
140,240,53883,5,0,3:0:0:0:
116,312,54055,1,0,1:0:0:0:
63,255,54226,2,0,B|57:216|77:178|113:161|147:164,1,134.999995880127,8|0,0:0|1:0,0:0:0:0:
260,272,54912,5,4,1:3:0:0:
112,176,65883,54,0,B|88:149|84:111|100:81,1,75,8|0,0:0|0:0,0:0:0:0:
176,120,66226,1,0,1:0:0:0:
156,244,66398,2,0,B|116:269|64:260|32:223|28:182,1,150,8|0,0:0|1:0,0:0:0:0:
204,308,66912,2,0,L|280:316,1,75,8|0,0:0|0:0,0:0:0:0:
348,272,67255,6,0,B|384:204|384:204|364:120,1,150,8|0,2:2|1:2,0:0:0:0:
452,36,67769,2,0,B|460:68|442:100|442:100|464:184,1,150,8|0,2:2|1:2,0:0:0:0:
376,56,68283,2,0,B|345:36|307:34|276:48,1,75,8|0,0:0|1:0,0:0:0:0:
240,116,68626,6,0,L|156:104,2,75,8|0|0,0:0|0:0|1:0,0:0:0:0:
296,184,69141,2,0,L|392:168,1,75,8|0,0:0|0:0,0:0:0:0:
369,171,69483,1,0,1:0:0:0:
440,220,69655,2,0,B|461:192|461:156|444:129,1,75,8|0,0:0|0:0,0:0:0:0:
368,252,69998,6,0,L|356:336,2,75,8|0|0,2:2|2:0|1:0,0:0:0:0:
296,184,70513,2,0,L|279:88,1,75,8|0,2:2|2:0,0:0:0:0:
228,240,70855,1,0,1:0:0:0:
228,240,71026,2,0,B|234:274|222:306|200:328,1,75,8|0,2:0|1:0,0:0:0:0:
148,264,71369,6,0,B|101:255|69:211|73:162|99:129,1,150,8|0,0:0|1:0,0:0:0:0:
305,159,71883,2,0,B|240:192|240:192|164:184,1,150,8|0,0:0|1:0,0:0:0:0:
156,104,72398,2,0,L|240:112,1,75,8|0,0:0|0:0,0:0:0:0:
305,159,72741,6,0,B|360:169|411:143|438:100,1,150,8|0,0:0|1:0,0:0:0:0:
480,188,73255,2,0,L|456:344,1,150,8|0,0:0|1:0,0:0:0:0:
384,288,73769,1,8,0:0:0:0:
384,288,73941,1,0,0:0:0:0:
300,300,74112,6,0,B|265:316|225:307|200:281,1,75,8|0,2:0|0:0,0:0:0:0:
208,216,74455,1,0,1:0:0:0:
208,216,74626,2,0,B|170:206|146:173|144:137,1,75,8|0,2:0|0:0,0:0:0:0:
200,104,74969,2,0,B|178:72|180:31|202:3,2,75,0|8|0,1:0|2:0|0:0,0:0:0:0:
272,56,75483,6,0,B|303:34|344:36|372:58,2,75,8|0|0,2:0|1:0|1:0,0:0:0:0:
320,124,75997,2,0,B|295:134|279:155|273:179,1,75,8|0,2:0|1:0,0:0:0:0:
264,269,76341,1,0,1:0:0:0:
356,204,76512,2,0,B|343:228|345:254|356:276,1,75,8|0,2:0|1:0,0:0:0:0:
432,240,76855,5,4,1:0:0:0:
164,116,82341,54,0,B|135:163|147:222|187:255,1,150,6|2,1:2|1:2,0:0:0:0:
348,268,83026,2,0,B|377:221|365:162|325:129,1,150,0|0,1:0|1:0,0:0:0:0:
136,92,83712,6,0,B|117:147|147:205|199:224,1,150,2|2,1:2|1:2,0:0:0:0:
376,292,84398,2,0,B|395:237|365:179|313:160,1,150,0|0,1:0|1:0,0:0:0:0:
104,108,85083,6,0,B|88:143|96:182|120:208,1,75,2|0,1:2|1:0,0:0:0:0:
192,304,85426,2,0,B|218:277|222:239|208:209,1,75,2|0,1:2|1:0,0:0:0:0:
296,148,85769,6,0,B|293:122|302:97|320:80,1,75,2|0,1:2|1:0,0:0:0:0:
409,203,86112,2,0,B|419:228|418:254|408:276,1,75,2|0,1:2|1:0,0:0:0:0:
308,332,86455,6,0,B|269:337|234:312|224:277,1,75,2|0,1:2|1:0,0:0:0:0:
88,248,86798,2,0,B|105:227|130:218|155:222,1,75,2|0,1:2|1:0,0:0:0:0:
268,212,87141,6,0,B|306:179|305:121|268:88,1,112.5,2|2,1:2|0:0,0:0:0:0:
260,88,87483,2,0,L|176:72,1,75,8|2,0:0|1:2,0:0:0:0:
104,128,87826,6,2,B|66:192|73:267|111:323,1,179.999994506836,4|8,1:0|0:0,0:0:0:0:
184,352,88341,2,2,L|300:340,1,89.9999972534181,2|0,2:1|0:0,0:0:0:0:
356,284,88683,2,0,L|400:296,2,44.999998626709,0|0|8,1:0|3:1|3:2,0:0:0:0:
296,208,89026,1,0,3:1:0:0:
296,208,89198,6,2,B|330:182|374:182|407:204,1,89.9999972534181,0|0,1:0|0:0,0:0:0:0:
476,204,89541,1,8,0:0:0:0:
444,120,89712,2,2,B|404:80|364:76|364:76|308:100|252:84,1,179.999994506836,2|0,1:1|1:0,0:0:0:0:
196,40,90226,2,2,L|112:48,3,44.999998626709,2|0|2|2,0:0|3:0|0:0|0:0,0:0:0:0:
124,80,90569,6,2,B|104:128|136:196|136:196|92:224|76:264,1,179.999994506836,0|8,1:0|0:0,0:0:0:0:
168,280,91083,2,0,B|207:314|267:309|302:264|300:218,1,179.999994506836,0|2,3:0|1:1,0:0:0:0:
380,268,91598,2,2,B|367:305|380:344|407:368,1,89.9999972534181,8|0,2:2|3:0,0:0:0:0:
476,300,91941,6,2,L|492:108,1,179.999994506836,2|8,1:1|2:0,0:0:0:0:
420,48,92455,2,0,L|328:24,1,89.9999972534181,0|0,0:0|3:0,0:0:0:0:
352,120,92798,1,2,1:0:0:0:
352,120,92969,2,2,L|284:132,3,44.999998626709,8|0|0|0,2:0|0:0|3:0|3:0,0:0:0:0:
260,140,93312,6,2,B|237:85|181:54|123:59|81:87,1,179.999994506836,0|8,1:0|0:0,0:0:0:0:
44,144,93826,2,2,B|66:168|99:176|128:168,1,89.9999972534181,2|0,2:1|0:0,0:0:0:0:
192,252,94169,1,0,1:0:0:0:
192,252,94341,2,0,B|161:244|130:255|109:276,1,89.9999972534181,8|0,3:2|3:1,0:0:0:0:
176,340,94683,6,2,B|264:356|264:356|316:348|352:284,1,179.999994506836,0|8,1:0|0:0,0:0:0:0:
240,180,95198,2,2,B|229:210|236:241|255:264,1,89.9999972534181,2|0,1:1|0:0,0:0:0:0:
336,204,95541,1,0,1:0:0:0:
432,240,95712,2,0,L|444:184,3,44.999998626709,10|2|0|2,0:0|0:0|3:0|0:0,0:0:0:0:
448,164,96055,6,2,B|457:112|422:63|368:51|326:71,1,179.999994506836,0|8,1:0|0:0,0:0:0:0:
176,128,96569,2,0,B|208:150|249:149|278:128,1,89.9999972534181,0|0,3:0|3:0,0:0:0:0:
144,44,96912,1,2,1:1:0:0:
144,44,97083,2,2,B|113:30|79:31|51:43,1,89.9999972534181,8|0,2:0|3:0,0:0:0:0:
80,136,97426,6,2,L|92:328,1,179.999994506836,2|8,1:1|2:0,0:0:0:0:
176,356,97941,1,0,0:0:0:0:
248,288,98112,2,0,B|273:262|310:258|339:272,1,89.9999972534181,0|2,3:0|1:1,0:0:0:0:
408,320,98455,2,2,L|464:312,3,44.999998626709,8|0|0|0,2:0|0:0|3:0|3:0,0:0:0:0:
464,284,98798,6,2,B|514:230|512:148|465:97,1,179.999994506836,6|8,1:2|2:0,0:0:0:0:
363,33,99312,2,2,B|341:93|361:158|407:195,1,179.999994506836,2|0,2:1|1:0,0:0:0:0:
330,268,99826,2,0,L|226:244,1,89.9999972534181,8|0,3:2|3:0,0:0:0:0:
151,306,100169,2,2,B|103:330|45:312|16:264|20:217,1,179.999994506836,0|8,1:0|0:0,0:0:0:0:
68,120,100683,1,2,1:1:0:0:
68,120,100855,2,0,B|98:96|105:56|88:25,1,89.9999972534181,0|0,0:0|1:0,0:0:0:0:
200,72,101198,2,0,B|200:109|220:141|248:160,1,89.9999972534181,10|0,0:0|3:0,0:0:0:0:
308,76,101541,6,2,B|365:40|441:63|468:124,1,179.999994506836,0|8,1:0|0:0,0:0:0:0:
476,216,102055,2,0,B|477:281|420:332|356:324,1,179.999994506836,0|2,3:0|1:1,0:0:0:0:
286,212,102569,2,2,L|376:224,1,89.9999972534181,8|0,2:0|3:0,0:0:0:0:
260,300,102912,6,2,L|72:320,1,179.999994506836,2|8,1:1|2:0,0:0:0:0:
16,244,103426,2,0,L|24:144,1,89.9999972534181,0|0,0:0|3:0,0:0:0:0:
112,96,103769,2,2,L|120:156,5,44.999998626709,2|0|8|0|0|0,1:1|0:0|2:0|0:0|3:0|3:0,0:0:0:0:
124,180,104283,6,2,B|168:176|204:144|204:144|256:144|300:188,1,179.999994506836,0|8,1:0|0:0,0:0:0:0:
324,264,104798,2,2,B|380:242|407:177|381:118|334:93,1,179.999994506836,2|0,2:1|1:0,0:0:0:0:
460,144,105312,2,0,B|472:185|461:226|436:256,1,89.9999972534181,8|0,3:2|3:3,0:0:0:0:
384,324,105655,2,2,B|322:296|253:315|213:363,1,179.999994506836,0|8,1:0|0:0,0:0:0:0:
156,296,106169,2,2,L|136:92,1,179.999994506836,2|0,1:1|1:0,0:0:0:0:
76,44,106683,2,0,L|20:32,2,44.999998626709,10|2|0,0:0|0:0|3:0,0:0:0:0:
52,136,107026,6,2,B|69:192|127:223|186:209|219:170,1,179.999994506836,0|8,1:0|0:0,0:0:0:0:
272,124,107541,1,0,3:0:0:0:
336,192,107712,2,0,B|360:171|368:140|360:111,1,89.9999972534181,0|2,3:0|1:1,0:0:0:0:
300,36,108055,2,2,B|270:25|238:32|215:51,1,89.9999972534181,8|0,2:0|3:0,0:0:0:0:
120,108,108398,5,4,3:0:0:0:
120,108,108569,1,8,0:3:0:0:
208,172,108741,1,4,3:0:0:0:
208,172,108912,1,8,0:3:0:0:
120,108,109083,2,0,L|176:36,1,89.9999972534181,0|0,0:0|1:0,0:0:0:0:
120,196,109426,2,0,L|64:267,1,89.9999972534181,8|0,0:0|1:0,0:0:0:0:
144,352,109769,6,0,B|172:352|208:328|208:328|248:340|248:340|296:328,1,150,4|8,1:0|2:0,0:0:0:0:
376,300,110283,1,0,3:0:0:0:
376,300,110455,2,0,L|464:308,1,75,0|0,3:0|1:0,0:0:0:0:
424,216,110798,2,0,L|504:192,1,75,8|0,2:0|3:0,0:0:0:0:
432,124,111141,6,0,B|456:76|456:76|432:24|340:40,1,150,0|8,1:0|2:0,0:0:0:0:
239,63,111655,2,0,B|255:85|279:96|304:96,1,75,0|0,3:0|3:0,0:0:0:0:
252,176,111998,1,0,1:0:0:0:
252,176,112169,2,0,L|164:168,1,75,8|0,2:0|2:0,0:0:0:0:
116,112,112512,6,0,L|140:288,1,150,0|8,1:0|2:0,0:0:0:0:
156,352,113026,1,0,3:0:0:0:
232,296,113198,2,0,B|261:277|294:274|324:284,1,75,0|0,3:0|1:0,0:0:0:0:
380,340,113541,2,0,B|406:312|408:271|388:241,1,75,8|0,2:0|1:0,0:0:0:0:
340,204,113883,6,0,L|256:192,2,75,0|0|8,1:0|0:0|2:0,0:0:0:0:
424,144,114398,2,0,L|504:128,2,75,0|0|0,1:0|0:0|1:0,0:0:0:0:
376,64,114912,2,0,L|276:80,1,75,8|2,2:0|2:2,0:0:0:0:
220,124,115255,6,0,B|172:120|132:80|132:80|104:112|68:120,1,150,0|8,1:0|2:0,0:0:0:0:
32,188,115769,2,0,L|56:288,1,75,0|0,3:0|3:0,0:0:0:0:
136,320,116112,1,0,1:0:0:0:
136,320,116283,2,0,L|153:247,1,75,8|0,2:0|2:0,0:0:0:0:
240,172,116626,6,0,B|275:226|273:293|241:343,1,150,0|8,1:0|2:0,0:0:0:0:
360,296,117141,2,0,B|372:243|412:205|459:192,1,150,0|0,3:0|1:0,0:0:0:0:
416,112,117655,2,0,L|316:96,1,75,8|0,2:0|2:0,0:0:0:0:
260,48,117998,5,0,1:0:0:0:
192,112,118169,1,0,2:0:0:0:
112,64,118341,2,0,B|78:46|38:49|8:68,1,75,8|0,2:0|0:0,0:0:0:0:
28,176,118683,2,0,B|54:182|79:178|100:166,1,75,0|0,1:0|1:0,0:0:0:0:
192,112,119026,2,0,B|208:142|208:176|196:204,1,75,8|0,2:0|2:0,0:0:0:0:
128,248,119369,2,0,B|93:280|108:340|165:355|203:327|209:292,1,150,0|8,1:0|2:0,0:0:0:0:
268,288,119883,2,0,B|304:296|304:296|380:284|380:284|436:296,1,150,0|0,1:0|1:0,0:0:0:0:
476,224,120398,2,0,L|384:200,1,75,8|0,2:0|2:0,0:0:0:0:
348,136,120741,6,0,B|328:100|336:60|336:60|304:32|256:40,1,150,4|8,1:0|2:0,0:0:0:0:
200,96,121255,2,0,B|160:104|124:88|124:88|36:116,1,150,2|0,0:0|1:0,0:0:0:0:
24,200,121769,1,8,2:0:0:0:
24,200,121941,1,2,2:0:0:0:
24,200,122112,6,0,B|40:244|32:276|32:276|120:260,1,150,0|8,1:0|2:0,0:0:0:0:
184,308,122626,2,0,L|268:292,1,75,0|0,1:0|0:0,0:0:0:0:
344,260,122969,2,0,L|417:274,2,75,0|8|2,1:0|0:0|0:0,0:0:0:0:
257,293,123483,6,0,B|311:266|332:201|308:149,1,150,0|8,1:0|0:0,0:0:0:0:
310,75,123998,2,0,B|283:76|259:87|242:103,1,75,0|0,1:0|0:0,0:0:0:0:
232,212,124341,1,0,1:0:0:0:
140,192,124512,2,0,B|105:192|75:173|60:144,1,75,8|0,2:0|2:0,0:0:0:0:
168,120,124855,6,0,L|180:296,1,150,0|8,1:0|0:0,0:0:0:0:
244,324,125369,2,0,B|288:362|349:364|395:337,1,150,0|0,3:0|1:0,0:0:0:0:
452,280,125883,1,8,0:0:0:0:
452,280,126055,1,2,0:0:0:0:
416,204,126226,6,0,B|404:168|404:168|416:108,1,75,0|0,1:0|0:0,0:0:0:0:
324,48,126569,2,0,B|336:84|336:84|324:144,1,75,8|0,2:0|3:0,0:0:0:0:
252,164,126912,2,0,B|176:176|176:176|132:156|104:116,1,150,0|8,3:0|2:0,0:0:0:0:
64,72,127426,1,2,2:0:0:0:
36,152,127598,6,0,B|11:207|25:268|63:307,1,150,0|8,1:0|2:0,0:0:0:0:
120,344,128112,1,0,0:1:0:0:
200,304,128283,2,0,B|231:286|267:288|296:304,1,75,2|0,3:2|1:0,0:0:0:0:
324,224,128626,2,0,B|295:208|282:175|288:145,1,75,8|0,2:0|3:0,0:0:0:0:
332,80,128969,6,0,B|408:64|408:64|476:104,1,150,0|8,1:0|2:0,0:0:0:0:
492,192,129483,2,0,L|472:272,1,75,2|2,0:0|3:2,0:0:0:0:
408,324,129826,1,0,1:0:0:0:
324,360,129998,2,0,L|232:340,1,75,4|0,3:2|1:0,0:0:0:0:
172,320,130341,5,4,3:2:0:0:
112,136,130683,1,0,1:0:0:0:
240,272,131026,1,0,1:0:0:0:
200,144,131369,1,0,1:0:0:0:
352,92,131712,6,0,B|332:132|345:180|383:205|422:204,1,150,4|8,1:0|0:0,0:0:0:0:
484,264,132226,2,0,B|464:293|428:303|397:292,1,75,0|2,0:0|2:0,0:0:0:0:
332,268,132569,1,0,1:0:0:0:
244,248,132741,2,0,B|217:247|193:260|179:280,1,75,8|0,2:0|2:0,0:0:0:0:
100,336,133083,6,0,B|69:288|84:225|131:196,1,150,0|8,1:0|0:0,0:0:0:0:
64,132,133598,2,0,L|48:36,1,75,0|0,3:0|3:0,0:0:0:0:
176,20,133941,2,0,L|163:93,1,75,0|8,1:0|2:0,0:0:0:0:
220,176,134283,1,0,0:0:0:0:
312,140,134455,6,0,B|352:140|384:116|384:116|432:120|472:156,1,150,0|8,1:0|0:0,0:0:0:0:
484,224,134969,2,0,B|495:257|486:292|464:316,1,75,0|2,0:0|2:0,0:0:0:0:
408,352,135312,1,0,1:0:0:0:
320,356,135483,2,0,B|289:344|267:318|260:288,1,75,8|0,2:0|0:0,0:0:0:0:
252,224,135826,6,0,L|284:64,1,150,0|8,1:0|2:0,0:0:0:0:
212,24,136341,2,0,L|196:104,1,75,0|0,3:0|3:0,0:0:0:0:
340,184,136683,2,0,L|354:110,2,75,0|8|2,1:0|2:0|2:0,0:0:0:0:
252,224,137198,6,0,B|197:192|133:192|80:216,1,150,4|8,1:0|0:0,0:0:0:0:
136,284,137712,2,0,B|174:278|210:289|236:312,1,75,0|2,0:0|2:0,0:0:0:0:
288,344,138055,1,0,1:0:0:0:
368,304,138226,2,0,B|402:299|428:277|440:248,1,75,8|0,2:0|0:0,0:0:0:0:
460,184,138569,6,0,B|409:159|392:95|424:48,1,150,0|8,1:0|0:0,0:0:0:0:
344,12,139083,1,0,3:0:0:0:
268,48,139255,2,0,L|180:36,1,75,0|0,3:0|1:0,0:0:0:0:
148,136,139598,2,0,L|236:124,1,75,8|0,2:0|0:0,0:0:0:0:
296,164,139941,6,0,B|372:152|372:152|352:244,1,150,0|8,1:0|0:0,0:0:0:0:
344,304,140455,2,0,B|328:348|282:373|235:365|205:337,1,150,0|0,0:0|1:0,0:0:0:0:
226,215,140969,2,0,B|250:227|264:251|264:276,1,75,8|0,2:0|2:0,0:0:0:0:
220,348,141312,6,0,L|60:360,1,150,0|8,1:0|2:0,0:0:0:0:
92,200,141998,2,0,B|115:176|119:140|104:113,1,75,0|0,3:0|1:0,0:0:0:0:
19,68,142341,2,0,B|12:94|17:120|32:140,1,75,8|2,2:0|2:0,0:0:0:0:
92,200,142683,6,0,B|154:216|215:181|236:125,1,150,4|8,1:0|0:0,0:0:0:0:
244,56,143198,1,0,0:0:0:0:
324,104,143369,2,0,L|424:92,1,75,2|0,0:0|1:0,0:0:0:0:
440,176,143712,2,0,L|365:184,1,75,8|0,2:0|2:0,0:0:0:0:
320,260,144055,6,0,B|244:244|244:244|192:264|172:304,1,150,0|8,1:0|0:0,0:0:0:0:
112,328,144569,1,0,3:0:0:0:
60,260,144741,2,0,B|16:213|9:146|35:93,1,150,0|8,3:0|2:0,0:0:0:0:
92,64,145255,1,0,0:0:0:0:
176,76,145426,6,0,B|204:76|224:64|224:64|272:80|272:80|308:68|352:64,1,150,0|8,1:0|0:0,0:0:0:0:
404,100,145941,1,0,0:0:0:0:
456,172,146112,2,0,B|468:205|465:239|451:267,1,75,2|0,2:0|1:0,0:0:0:0:
360,296,146455,2,0,B|348:263|347:229|356:198,1,75,10|0,2:0|2:0,0:0:0:0:
284,128,146798,6,0,L|264:300,1,150,0|8,1:0|2:0,0:0:0:0:
180,304,147312,2,0,L|192:216,1,75,0|0,3:0|3:0,0:0:0:0:
92,192,147655,2,0,L|102:266,1,75,0|8,1:0|2:0,0:0:0:0:
112,352,147998,1,2,2:0:0:0:
180,304,148169,6,0,B|221:257|287:247|339:271,1,150,4|8,1:0|0:0,0:0:0:0:
384,328,148683,2,0,B|411:303|417:264|404:233,1,75,0|2,0:0|2:0,0:0:0:0:
360,180,149026,1,0,1:0:0:0:
316,96,149198,2,0,B|347:78|384:81|412:100,1,75,8|0,2:0|0:0,0:0:0:0:
268,156,149541,6,0,B|207:159|155:126|128:77,1,150,0|8,1:0|0:0,0:0:0:0:
68,152,150055,2,0,L|88:324,1,150,0|0,3:0|1:0,0:0:0:0:
160,352,150569,1,8,2:0:0:0:
240,304,150741,1,0,0:0:0:0:
320,356,150912,6,0,L|412:344,1,75,0|0,1:0|0:0,0:0:0:0:
444,252,151255,2,0,L|352:240,1,75,8|0,0:0|0:0,0:0:0:0:
312,168,151598,1,2,2:0:0:0:
312,168,151769,1,0,1:0:0:0:
220,196,151941,1,8,2:0:0:0:
220,196,152112,1,0,2:0:0:0:
120,176,152283,6,0,B|97:147|99:108|120:81,1,75,0|2,1:0|2:0,0:0:0:0:
207,124,152626,2,0,B|230:153|228:192|207:219,1,75,8|0,2:0|1:0,0:0:0:0:
148,264,152969,1,8,2:0:0:0:
236,288,153141,1,0,1:0:0:0:
304,228,153312,2,0,L|320:132,1,75,8|8,2:0|2:0,0:0:0:0:
392,84,153655,5,4,0:3:0:0:
